<?xml version="1.0" standalone="no"?>
<!DOCTYPE svg PUBLIC "-//W3C//DTD SVG 1.1//EN" "http://www.w3.org/Graphics/SVG/1.1/DTD/svg11.dtd" >
<svg xmlns="http://www.w3.org/2000/svg">
<metadata>Generated by IcoMoon</metadata>
<defs>
<font id="icomoon" horiz-adv-x="1024">
<font-face units-per-em="1024" ascent="960" descent="-64" />
<missing-glyph horiz-adv-x="1024" />
<glyph unicode="&#x20;" horiz-adv-x="512" d="" />
<glyph unicode="&#xe900;" glyph-name="file-down" horiz-adv-x="1001" d="M501.861 189.465c-12.673 0-25.347 5.069-35.485 15.208l-326.97 324.436c-20.277 20.277-20.277 50.693 0 70.97s50.693 20.277 70.97 0l288.95-288.95 288.95 288.95c20.277 20.277 50.693 20.277 70.97 0s20.277-50.693 0-70.97l-321.901-324.436c-10.139-10.139-22.812-15.208-35.485-15.208zM501.861 189.465c-27.881 0-50.693 22.812-50.693 50.693v669.149c0 27.881 22.812 50.693 50.693 50.693s50.693-22.812 50.693-50.693v-669.149c0-27.881-22.812-50.693-50.693-50.693zM950.495-64h-899.802c-27.881 0-50.693 22.812-50.693 50.693v314.297c0 27.881 22.812 50.693 50.693 50.693s50.693-22.812 50.693-50.693v-263.604h798.416v263.604c0 27.881 22.812 50.693 50.693 50.693s50.693-22.812 50.693-50.693v-314.297c0-27.881-22.812-50.693-50.693-50.693z" />
<glyph unicode="&#xe901;" glyph-name="file-up" horiz-adv-x="1001" d="M950.495-64h-899.802c-27.881 0-50.693 22.812-50.693 50.693v314.297c0 27.881 22.812 50.693 50.693 50.693s50.693-22.812 50.693-50.693v-263.604h798.416v263.604c0 27.881 22.812 50.693 50.693 50.693s50.693-22.812 50.693-50.693v-314.297c0-27.881-22.812-50.693-50.693-50.693zM826.297 534.178c-12.673 0-25.347 5.069-35.485 15.208l-288.95 288.95-291.485-291.485c-20.277-20.277-50.693-20.277-70.97 0s-20.277 50.693 0 70.97l324.436 326.97c20.277 20.277 50.693 20.277 70.97 0l326.97-324.436c20.277-20.277 20.277-50.693 0-70.97-10.139-12.673-22.812-15.208-35.485-15.208zM501.861 189.465c-27.881 0-50.693 22.812-50.693 50.693v669.149c0 27.881 22.812 50.693 50.693 50.693s50.693-22.812 50.693-50.693v-669.149c0-27.881-22.812-50.693-50.693-50.693z" />
<glyph unicode="&#xe902;" glyph-name="blank" d="M749.469 369.759c-21.962 0-41.18 19.217-41.18 41.18v233.351h-233.351c-21.962 0-41.18 19.217-41.18 41.18s19.217 41.18 41.18 41.18h274.531c21.962 0 41.18-19.217 41.18-41.18v-274.531c0-21.962-19.217-41.18-41.18-41.18zM266.295 161.115c-10.981 0-21.962 2.745-30.198 10.981-16.472 16.472-16.472 41.18 0 57.651l483.174 485.92c16.472 16.472 41.18 16.472 57.651 0s16.472-41.18 0-57.651l-480.429-485.92c-8.236-8.236-19.217-10.981-30.198-10.981zM771.432-64h-521.609c-140.011 0-252.568 112.558-252.568 252.568v521.609c0 140.011 112.558 252.568 252.568 252.568h301.984c21.962 0 41.18-19.217 41.18-41.18s-19.217-41.18-41.18-41.18h-301.984c-93.34 0-170.209-76.869-170.209-170.209v-521.609c0-93.34 76.869-170.209 170.209-170.209h521.609c93.34 0 170.209 76.869 170.209 170.209v301.984c0 21.962 19.217 41.18 41.18 41.18s41.18-19.217 41.18-41.18v-301.984c0-140.011-112.558-252.568-252.568-252.568z" />
<glyph unicode="&#xe903;" glyph-name="close" d="M958.638-64c-17.43 0-33.407 5.81-46.479 18.882l-893.277 893.277c-26.145 26.145-26.145 66.814 0 92.959s66.814 26.145 92.959 0l893.277-893.277c26.145-26.145 26.145-66.814 0-92.959-13.072-11.62-30.502-18.882-46.479-18.882zM65.362-64c-17.43 0-33.407 5.81-46.479 18.882-26.145 26.145-26.145 66.814 0 92.959l893.277 893.277c26.145 26.145 66.814 26.145 92.959 0s26.145-66.814 0-92.959l-893.277-893.277c-13.072-11.62-29.050-18.882-46.479-18.882z" />
<glyph unicode="&#xe904;" glyph-name="arrow-b" horiz-adv-x="1929" d="M1823.562 960c28.055 0 56.11-14.027 77.151-35.068 42.082-42.082 35.068-112.219-7.014-147.288l-855.671-813.589c-42.082-42.082-105.205-35.068-147.288 7.014s-35.068 112.219 7.014 147.288l855.671 813.589c21.041 21.041 42.082 28.055 70.137 28.055zM105.205 960c28.055 0 49.096-7.014 70.137-28.055l862.685-813.589c42.082-42.082 42.082-105.205 7.014-147.288-42.082-42.082-105.205-42.082-147.288-7.014l-862.685 813.589c-42.082 42.082-49.096 105.205-7.014 147.288 21.041 21.041 49.096 35.068 77.151 35.068z" />
<glyph unicode="&#xe905;" glyph-name="arrow-t" horiz-adv-x="1929" d="M105.205-64c-28.055 0-56.11 14.027-77.151 35.068-42.082 42.082-35.068 112.219 7.014 147.288l862.685 813.589c42.082 42.082 112.219 35.068 147.288-7.014 42.082-42.082 35.068-112.219-7.014-147.288l-862.685-813.589c-21.041-21.041-42.082-28.055-70.137-28.055zM1823.562-64c-28.055 0-49.096 7.014-70.137 28.055l-855.671 813.589c-42.082 42.082-42.082 105.205-7.014 147.288 42.082 42.082 105.205 42.082 147.288 7.014l855.671-813.589c42.082-42.082 42.082-105.205 7.014-147.288-21.041-21.041-49.096-35.068-77.151-35.068z" />
<glyph unicode="&#xe906;" glyph-name="arrow-dl" horiz-adv-x="938" d="M868.709-64c-18.45 0-35.363 6.15-49.201 19.988l-442.811 442.811c-27.676 27.676-27.676 70.727 0 98.402l442.811 442.811c27.676 27.676 70.727 27.676 98.402 0s27.676-70.727 0-98.402l-393.61-393.61 393.61-393.61c27.676-27.676 27.676-70.727 0-98.402-13.838-13.838-30.751-19.988-49.201-19.988zM512-64c-18.45 0-35.363 6.15-49.201 19.988l-442.811 442.811c-27.676 27.676-27.676 70.727 0 98.402l442.811 442.811c27.676 27.676 70.727 27.676 98.402 0s27.676-70.727 0-98.402l-393.61-393.61 393.61-393.61c27.676-27.676 27.676-70.727 0-98.402-13.838-13.838-30.751-19.988-49.201-19.988z" />
<glyph unicode="&#xe907;" glyph-name="arrow-dr" horiz-adv-x="938" d="M69.189-64c-18.45 0-35.363 6.15-49.201 19.988-27.676 27.676-27.676 70.727 0 98.402l393.61 393.61-393.61 393.61c-27.676 27.676-27.676 70.727 0 98.402s70.727 27.676 98.402 0l442.811-442.811c27.676-27.676 27.676-70.727 0-98.402l-442.811-442.811c-13.838-13.838-30.751-19.988-49.201-19.988zM425.898-64c-18.45 0-35.363 6.15-49.201 19.988-27.676 27.676-27.676 70.727 0 98.402l393.61 393.61-393.61 393.61c-27.676 27.676-27.676 70.727 0 98.402s70.727 27.676 98.402 0l442.811-442.811c27.676-27.676 27.676-70.727 0-98.402l-442.811-442.811c-13.838-13.838-30.751-19.988-49.201-19.988z" />
<glyph unicode="&#xe908;" glyph-name="arrow-l" horiz-adv-x="581" d="M512-64c-18.45 0-35.363 6.15-49.201 19.988l-442.811 442.811c-27.676 27.676-27.676 70.727 0 98.402l442.811 442.811c27.676 27.676 70.727 27.676 98.402 0s27.676-70.727 0-98.402l-393.61-393.61 393.61-393.61c27.676-27.676 27.676-70.727 0-98.402-13.838-13.838-30.751-19.988-49.201-19.988z" />
<glyph unicode="&#xe909;" glyph-name="arrow-r" horiz-adv-x="581" d="M69.189-64c-18.45 0-35.363 6.15-49.201 19.988-27.676 27.676-27.676 70.727 0 98.402l393.61 393.61-393.61 393.61c-27.676 27.676-27.676 70.727 0 98.402s70.727 27.676 98.402 0l442.811-442.811c27.676-27.676 27.676-70.727 0-98.402l-442.811-442.811c-13.838-13.838-30.751-19.988-49.201-19.988z" />
<glyph unicode="&#xe90a;" glyph-name="search" horiz-adv-x="985" d="M404.382 151.236c-104.357 0-208.713 39.134-286.981 117.401-156.535 156.535-156.535 417.427 0 573.962v0c156.535 156.535 417.427 156.535 573.962 0s156.535-417.427 0-573.962c-78.268-78.268-182.624-117.401-286.981-117.401zM182.624 777.376c-117.401-117.401-117.401-313.070 0-436.994 117.401-117.401 313.070-117.401 436.994 0 117.401 117.401 117.401 313.070 0 436.994s-313.070 117.401-436.994 0v0zM932.688-64c-13.045 0-26.089 6.522-32.611 13.045l-300.025 300.025c-19.567 19.567-19.567 52.178 0 71.745s52.178 19.567 71.745 0l300.025-300.025c19.567-19.567 19.567-52.178 0-71.745-13.045-6.522-26.089-13.045-39.134-13.045z" />
<glyph unicode="&#xe90b;" glyph-name="minus" d="M0 448c0 37.053 30.316 67.368 67.368 67.368h889.263c37.053 0 67.368-30.316 67.368-67.368s-30.316-67.368-67.368-67.368h-889.263c-37.053 0-67.368 30.316-67.368 67.368z" />
<glyph unicode="&#xe90c;" glyph-name="plus" d="M512-64c-37.053 0-67.368 30.316-67.368 67.368v889.263c0 37.053 30.316 67.368 67.368 67.368s67.368-30.316 67.368-67.368v-889.263c0-37.053-30.316-67.368-67.368-67.368zM0 448c0 37.053 30.316 67.368 67.368 67.368h889.263c37.053 0 67.368-30.316 67.368-67.368s-30.316-67.368-67.368-67.368h-889.263c-37.053 0-67.368 30.316-67.368 67.368z" />
<glyph unicode="&#xe90d;" glyph-name="file-excel" horiz-adv-x="768" d="M739.657 764.238l-167.768 167.768c-17.997 17.997-42.391 28.194-67.787 28.194h-408.122c-52.989-0.2-95.98-43.191-95.98-96.182v-831.838c0-52.992 42.991-95.986 95.982-95.986h575.889c52.992 0 95.984 42.993 95.984 95.986v664.072c-0.003 25.394-10.202 49.99-28.199 67.986zM664.070 704.050h-152.17v152.17l152.17-152.17zM95.98 32.182v831.836h319.938v-207.959c0-26.594 21.393-47.991 47.988-47.991h207.961v-575.888l-575.886 0.002zM420.988 339.143l105.128 154.827h-74.938l-67.659-99.645-67.661 99.645h-74.936l105.128-154.827-104.49-153.888h74.936l67.021 98.708 67.023-98.708h74.936z" />
<glyph unicode="&#xe90e;" glyph-name="file-img" horiz-adv-x="768" d="M739.655 764.039l-167.767 167.767c-17.997 17.997-42.391 28.194-67.787 28.194h-408.121c-52.989-0.2-95.98-43.191-95.98-96.181v-831.837c0-52.991 42.991-95.984 95.982-95.984h575.889c52.991 0 95.982 42.993 95.982 95.984v664.071c-0.002 25.394-10.2 49.989-28.197 67.986zM664.071 703.851h-152.172v152.17l152.172-152.17zM95.98 31.984v831.835h319.937v-207.959c0-26.594 21.395-47.991 47.989-47.991h207.96v-575.887h-575.887zM159.968 127.962h447.914v255.95l-46.99 46.99c-9.399 9.399-24.596 9.399-33.995 0l-174.965-174.963-78.985 78.986c-9.399 9.396-24.596 9.396-33.995 0l-78.985-78.986v-127.977zM255.95 607.871c-52.991 0-95.982-42.991-95.982-95.982s42.991-95.98 95.982-95.98 95.982 42.99 95.982 95.98-42.993 95.982-95.982 95.982z" />
<glyph unicode="&#xe90f;" glyph-name="file-pdf" horiz-adv-x="768" d="M739.655 764.039l-167.767 167.767c-17.997 17.997-42.391 28.194-67.787 28.194h-408.121c-52.989-0.2-95.98-43.191-95.98-96.181v-831.837c0-52.991 42.991-95.984 95.982-95.984h575.889c52.991 0 95.982 42.993 95.982 95.984v664.071c-0.002 25.394-10.2 49.989-28.197 67.986zM664.071 703.851h-152.172v152.17l152.172-152.17zM95.98 31.984v831.835h319.937v-207.959c0-26.594 21.395-47.991 47.989-47.991h207.96v-575.887h-575.887zM596.284 319.324c-24.396 23.997-93.984 17.396-128.776 13-34.392 20.994-57.388 49.989-73.584 92.58 7.798 32.194 20.196 81.186 10.797 111.978-8.398 52.389-75.586 47.19-85.183 11.798-8.799-32.194-0.8-76.986 13.998-134.173-19.997-47.79-49.79-111.978-70.786-148.771-39.992-20.595-93.984-52.389-101.981-92.382-6.599-31.592 51.99-110.377 152.172 62.388 44.79 14.798 93.581 32.994 136.772 40.191 37.794-20.396 81.984-33.995 111.579-33.995 50.987 0.002 55.987 56.391 34.992 77.385zM200.159 163.758c10.199 27.394 48.99 58.986 60.788 69.986-37.992-60.587-60.788-71.386-60.788-69.986zM363.328 544.882c14.798 0 13.398-64.187 3.6-81.583-8.797 27.793-8.598 81.583-3.6 81.583zM314.537 271.736c19.397 33.792 35.993 73.985 49.391 109.38 16.597-30.196 37.794-54.391 60.188-70.987-41.591-8.598-77.784-26.195-109.579-38.392zM577.686 281.733c0 0-9.998-11.996-74.585 15.596 70.188 5.199 81.785-10.796 74.585-15.596z" />
<glyph unicode="&#xe910;" glyph-name="file-ppt" horiz-adv-x="768" d="M739.655 764.039l-167.767 167.767c-17.997 17.997-42.391 28.194-67.787 28.194h-408.121c-52.989-0.2-95.98-43.191-95.98-96.181v-831.837c0-52.991 42.991-95.984 95.982-95.984h575.889c52.991 0 95.982 42.993 95.982 95.984v664.071c-0.002 25.394-10.2 49.989-28.197 67.986zM664.071 703.851h-152.172v152.17l152.172-152.17zM95.98 31.984v831.835h319.937v-207.959c0-26.594 21.395-47.991 47.989-47.991h207.96v-575.887h-575.887zM239.952 151.961v335.932c0 13.198 10.797 23.995 23.995 23.995h138.373c73.386 0 125.576-53.99 125.576-132.574 0-148.57-137.372-132.973-190.961-132.973v-94.381c0-13.198-10.797-23.997-23.995-23.997h-48.99c-13.2-0.002-23.997 10.799-23.997 23.997zM336.935 326.725h45.989c15.799 0 27.796 4.8 36.194 14.397 16.997 19.598 16.798 56.991 0.2 75.586-8.199 9.198-19.797 13.998-34.793 13.998h-47.79v-103.981h0.2z" />
<glyph unicode="&#xe911;" glyph-name="file-reg" horiz-adv-x="768" d="M739.655 764.039l-167.767 167.767c-17.997 17.997-42.391 28.194-67.787 28.194h-408.121c-52.989-0.2-95.98-43.191-95.98-96.181v-831.837c0-52.991 42.991-95.984 95.982-95.984h575.889c52.991 0 95.982 42.993 95.982 95.984v664.071c-0.002 25.394-10.2 49.989-28.197 67.986zM664.071 703.851h-152.172v152.17l152.172-152.17zM95.98 31.984v831.835h319.937v-207.959c0-26.594 21.395-47.991 47.989-47.991h207.96v-575.887h-575.887z" />
<glyph unicode="&#xe912;" glyph-name="file-word" horiz-adv-x="768" d="M739.655 764.039l-167.767 167.767c-17.997 17.997-42.391 28.194-67.787 28.194h-408.121c-52.989-0.2-95.98-43.191-95.98-96.181v-831.837c0-52.991 42.991-95.984 95.982-95.984h575.889c52.991 0 95.982 42.993 95.982 95.984v664.071c-0.002 25.394-10.2 49.989-28.197 67.986zM664.071 703.851h-152.172v152.17l152.172-152.17zM95.98 31.984v831.835h319.937v-207.959c0-26.594 21.395-47.991 47.989-47.991h207.96v-575.887h-575.887zM536.096 477.139c-11.399 0-21.196-7.997-23.397-18.996-41.191-195.362-40.792-190.764-41.992-206.961-0.399 2.401-0.8 5.199-1.398 8.599-1.601 10.199 0.6-0.399-47.19 198.96-2.6 10.799-12.199 18.397-23.397 18.397h-26.596c-10.999 0-20.595-7.598-23.395-18.196-48.791-197.963-47.991-192.363-49.59-207.36-0.2 2.2-0.399 5.001-0.999 8.402-1.4 10.397-28.195 146.572-38.193 197.959-2.2 11.2-11.998 19.397-23.596 19.397h-33.592c-15.596 0-26.995-14.596-23.397-29.595 15.998-65.186 53.39-218.957 66.388-271.946 2.6-10.796 12.197-18.196 23.397-18.196h50.39c10.999 0 20.595 7.401 23.194 18.196l35.794 142.773c2.999 12.398 5 23.997 5.999 34.595l5.799-34.595c0.2-0.8 25.194-100.978 35.794-142.773 2.599-10.598 12.197-18.196 23.194-18.196h49.391c10.999 0 20.597 7.401 23.196 18.196 41.591 163.77 60.388 237.955 68.985 271.946 3.799 15.2-7.598 29.795-23.196 29.795h-31.592v-0.401z" />
<glyph unicode="&#xe913;" glyph-name="file-zip" horiz-adv-x="768" d="M739.655 764.238l-167.768 167.768c-17.997 17.997-42.391 28.194-67.787 28.194h-408.122c-52.987-0.2-95.979-43.191-95.979-96.182v-831.838c0-52.994 42.991-95.987 95.982-95.987h575.888c52.994 0 95.986 42.993 95.986 95.987v664.072c-0.005 25.394-10.204 49.99-28.201 67.986zM664.069 704.050h-152.172v152.17l152.172-152.17zM95.979 32.182v831.836h319.938v-207.959c0-26.594 21.392-47.991 47.986-47.991h207.962v-575.888l-575.886 0.002zM209.624 263.863l78.923 120.784h-71.374v28.137h112.778v-20.131l-78.694-120.784h79.609v-28.366h-121.244v20.36zM360.826 412.786h33.857v-169.283h-33.857v169.283zM436.309 412.786h55.589c37.517 0 66.342-13.038 66.342-53.072 0-38.661-29.054-56.047-65.425-56.047h-22.647v-60.163h-33.861v169.281zM490.528 330.432c23.332 0 34.542 9.838 34.542 29.281 0 19.674-12.356 26.309-35.687 26.309h-19.214v-55.589h20.36z" />
<glyph unicode="&#xe914;" glyph-name="cal" horiz-adv-x="964" d="M849.886-64h-735.976c-62.782 0-113.911 51.083-113.911 113.911v637.541c0 62.782 51.083 113.911 113.911 113.911h736.022c62.782 0 113.911-51.083 113.911-113.911v-637.541c-0.046-62.828-51.129-113.911-113.957-113.911zM113.911 704.127c-9.166 0-16.628-7.508-16.628-16.674v-637.541c0-9.166 7.462-16.674 16.628-16.674h736.022c9.166 0 16.628 7.508 16.628 16.674v637.541c0 9.212-7.462 16.674-16.628 16.674h-736.022zM337.265 794.592c0-7.232-5.85-13.082-13.035-13.082h-100.599c-7.186 0-13.035 5.85-13.035 13.082v152.372c0 7.232 5.85 13.082 13.035 13.082h100.599c7.186 0 13.035-5.85 13.035-13.082v-152.372zM753.249 794.592c0-7.232-5.85-13.082-13.035-13.082h-100.599c-7.186 0-13.035 5.85-13.035 13.082v152.372c0 7.232 5.85 13.082 13.035 13.082h100.599c7.186 0 13.035-5.85 13.035-13.082v-152.372zM333.626 432.915c0-14.417-11.7-26.117-26.117-26.117h-74.39c-14.417 0-26.117 11.7-26.117 26.117v74.436c0 14.417 11.7 26.117 26.117 26.117h74.39c14.417 0 26.117-11.7 26.117-26.117v-74.436zM545.234 432.915c0-14.417-11.7-26.117-26.117-26.117h-74.39c-14.417 0-26.117 11.7-26.117 26.117v74.436c0 14.417 11.7 26.117 26.117 26.117h74.39c14.417 0 26.117-11.7 26.117-26.117v-74.436zM756.842 432.915c0-14.417-11.7-26.117-26.117-26.117h-74.39c-14.417 0-26.117 11.7-26.117 26.117v74.436c0 14.417 11.7 26.117 26.117 26.117h74.39c14.417 0 26.117-11.7 26.117-26.117v-74.436zM333.626 230.013c0-14.417-11.7-26.117-26.117-26.117h-74.39c-14.417 0-26.117 11.7-26.117 26.117v74.39c0 14.417 11.7 26.117 26.117 26.117h74.39c14.417 0 26.117-11.7 26.117-26.117v-74.39zM545.234 230.013c0-14.417-11.7-26.117-26.117-26.117h-74.39c-14.417 0-26.117 11.7-26.117 26.117v74.39c0 14.417 11.7 26.117 26.117 26.117h74.39c14.417 0 26.117-11.7 26.117-26.117v-74.39zM756.842 230.013c0-14.417-11.7-26.117-26.117-26.117h-74.39c-14.417 0-26.117 11.7-26.117 26.117v74.39c0 14.417 11.7 26.117 26.117 26.117h74.39c14.417 0 26.117-11.7 26.117-26.117v-74.39z" />
<glyph unicode="&#xe915;" glyph-name="delete" horiz-adv-x="896" d="M536 128h48c13.255 0 24 10.745 24 24v0 432c0 13.255-10.745 24-24 24v0h-48c-13.255 0-24-10.745-24-24v0-432c0-13.255 10.745-24 24-24v0zM864 800h-164.82l-68 113.4c-17.083 28.11-47.539 46.6-82.314 46.6-0.016 0-0.032 0-0.048 0h-201.637c-0.002 0-0.004 0-0.006 0-34.775 0-65.231-18.49-82.074-46.175l-0.24-0.425-68.040-113.4h-164.82c-17.673 0-32-14.327-32-32v0-32c0-17.673 14.327-32 32-32v0h32v-672c0-53.019 42.981-96 96-96v0h576c53.019 0 96 42.981 96 96v0 672h32c17.673 0 32 14.327 32 32v0 32c0 17.673-14.327 32-32 32v0zM343.68 858.18c2.136 3.511 5.941 5.82 10.286 5.82 0.012 0 0.024 0 0.036 0h187.998c0.004 0 0.009 0 0.014 0 4.345 0 8.15-2.309 10.256-5.767l0.030-0.053 34.92-58.18h-278.44zM736 32h-576v672h576zM312 128h48c13.255 0 24 10.745 24 24v0 432c0 13.255-10.745 24-24 24v0h-48c-13.255 0-24-10.745-24-24v0-432c0-13.255 10.745-24 24-24v0z" />
<glyph unicode="&#xe916;" glyph-name="file" horiz-adv-x="892" d="M811.952 458.371c-6.798 6.638-18.323 6.369-24.881-0.312l-354.442-362.583c-36.77-37.605-85.595-58.339-137.441-58.339-52.195 0-101.223 20.981-138.117 59.007-75.979 78.412-74.868 206.623 2.535 285.761l432.128 442.041c44.163 45.063 120.411 44.976 164.457 0 46.203-47.307 46.203-124.216 0-171.473l-376.665-384.901c-14.808-15.091-40.023-14.852-54.504 0.465-15.2 16.173-14.539 42.594 1.503 59.007l296.096 302.465c6.79 6.936 6.667 18.069-0.24 24.896l-47.104 46.058c-6.667 6.609-18.316 6.5-24.874-0.24l-296.096-302.465c-53.509-54.737-54.773-143.956-2.832-199.005 26.718-28.287 62.58-43.858 101.1-43.858 37.481 0 72.704 14.91 99.161 41.94l376.672 384.966c84.295 86.227 84.295 226.551 0 312.763-41.214 42.187-96.060 65.434-154.464 65.434s-113.272-23.247-154.486-65.434l-432.128-442.012c-115.334-117.942-116.598-309.379-2.796-426.783 56.124-57.867 130.963-89.771 210.777-89.771 79.16 0 153.607 31.548 209.6 88.863l354.442 362.554c3.304 3.377 5.047 7.742 4.997 12.441 0 4.735-1.939 9.136-5.294 12.382l-47.104 46.131z" />
<glyph unicode="&#xe917;" glyph-name="pencil" d="M864 960c88.364 0 160-71.634 160-160 0-36.020-11.91-69.258-32-96l-64-64-224 224 64 64c26.742 20.090 59.978 32 96 32zM64 224l-64-288 288 64 592 592-224 224-592-592zM715.578 596.422l-448-448-55.156 55.156 448 448 55.156-55.156z" />
<glyph unicode="&#xe918;" glyph-name="say" horiz-adv-x="1106" d="M1073.021 12.255c-46.298 13.617-95.319 59.915-128 119.83 103.489 89.872 160.681 212.426 160.681 343.149 0 29.957-2.723 59.915-8.17 84.426 0 2.723 0 8.17-2.723 10.894 0 2.723 0 5.447 0 5.447v5.447c0 2.723 0 5.447-2.723 8.17 0 2.723-2.723 8.17-2.723 10.894-65.362 209.702-285.957 359.489-536.511 359.489-305.021 0-552.851-217.872-552.851-487.489 0-266.894 247.83-484.766 550.128-484.766 65.362 0 133.447 10.894 198.809 35.404 70.809-57.191 168.851-87.149 277.787-87.149h38.128c16.34 0 29.957 13.617 35.404 32.681 2.723 10.894 0 19.064-5.447 27.234s-13.617 13.617-21.787 16.34zM876.936 170.213c-13.617-10.894-19.064-29.957-10.894-46.298 16.34-38.128 38.128-73.532 65.362-103.489-57.191 13.617-106.213 38.128-141.617 70.809-8.17 8.17-19.064 10.894-27.234 10.894-5.447 0-8.17 0-13.617-2.723-62.638-21.787-128-35.404-193.362-35.404-261.447 0-476.596 182.468-476.596 408.511s215.149 411.234 476.596 411.234c215.149 0 405.787-125.277 462.979-307.745 0-2.723 0-5.447 2.723-8.17 0-2.723 0-5.447 0-5.447 0-2.723 0-8.17 2.723-10.894 0-2.723 0-5.447 2.723-8.17 5.447-19.064 8.17-46.298 8.17-70.809-5.447-117.106-59.915-223.319-157.957-302.298zM593.702 486.128h-78.979c-21.787 0-38.128-16.34-38.128-38.128s16.34-38.128 38.128-38.128h78.979c21.787 0 38.128 16.34 38.128 38.128s-16.34 38.128-38.128 38.128zM364.936 486.128h-81.702c-21.787 0-38.128-16.34-38.128-38.128s16.34-38.128 38.128-38.128h81.702c21.787 0 38.128 16.34 38.128 38.128s-16.34 38.128-38.128 38.128zM833.362 486.128h-81.702c-21.787 0-38.128-16.34-38.128-38.128s16.34-38.128 38.128-38.128h81.702c21.787 0 38.128 16.34 38.128 38.128s-16.34 38.128-38.128 38.128z" />
<glyph unicode="&#xe919;" glyph-name="lock" horiz-adv-x="860" d="M824.792-64h-789.843c-20.969 0-34.949 13.98-34.949 34.949v625.584c0 20.969 13.98 34.949 34.949 34.949h789.843c20.969 0 34.949-13.98 34.949-34.949v-625.584c0-20.969-13.98-34.949-34.949-34.949zM69.898 5.898h719.945v555.686h-719.945v-555.686zM429.87 243.549c-59.413 0-104.846 45.433-104.846 104.846s45.433 104.846 104.846 104.846c59.413 0 104.846-45.433 104.846-104.846s-45.433-104.846-104.846-104.846zM429.87 383.345c-20.969 0-34.949-13.98-34.949-34.949s13.98-34.949 34.949-34.949 34.949 13.98 34.949 34.949-13.98 34.949-34.949 34.949zM429.87 79.29c-20.969 0-34.949 13.98-34.949 34.949v160.765c0 20.969 13.98 34.949 34.949 34.949s34.949-13.98 34.949-34.949v-160.765c0-20.969-13.98-34.949-34.949-34.949zM650.048 561.584h-443.85c-20.969 0-34.949 13.98-34.949 34.949v195.713c0 90.867 76.887 167.754 167.754 167.754h174.744c90.867 0 167.754-76.887 167.754-167.754v-181.734c3.495-3.495 3.495-10.485 3.495-13.98 0-20.969-13.98-34.949-34.949-34.949zM241.147 631.481h370.457v160.765c0 52.423-45.433 97.857-97.857 97.857h-174.744c-52.423 0-97.857-45.433-97.857-97.857v-160.765z" />
<glyph unicode="&#xe91a;" glyph-name="people" horiz-adv-x="990" d="M494.794 389.871c-157.181 0-284.599 127.419-284.599 284.599 0 158.111 127.419 285.53 284.599 285.53s284.599-127.419 284.599-284.599c0.93-157.181-127.419-285.53-284.599-285.53zM494.794 866.994c-106.027 0-191.593-86.496-191.593-191.593s86.496-191.593 191.593-191.593c106.027 0 191.593 86.496 191.593 191.593s-85.566 191.593-191.593 191.593zM944.015-64c-26.042 0-46.503 20.461-46.503 46.503 0 134.859-109.748 244.607-244.607 244.607h-315.292c-134.859 0-244.607-109.748-244.607-244.607 0-26.042-20.461-46.503-46.503-46.503s-46.503 20.461-46.503 46.503c0 186.013 151.6 337.613 337.613 337.613h315.292c186.013 0 337.613-151.6 337.613-337.613 0-25.112-21.391-46.503-46.503-46.503z" />
<glyph unicode="&#xe969;" glyph-name="forward" d="M262.14 960c-113.728-206.032-132.89-520.304 313.86-509.824v253.824l384-384-384-384v248.372c-534.96-13.942-594.572 472.214-313.86 775.628z" />
<glyph unicode="&#xe994;" glyph-name="cog" d="M933.79 349.75c-53.726 93.054-21.416 212.304 72.152 266.488l-100.626 174.292c-28.75-16.854-62.176-26.518-97.846-26.518-107.536 0-194.708 87.746-194.708 195.99h-201.258c0.266-33.41-8.074-67.282-25.958-98.252-53.724-93.056-173.156-124.702-266.862-70.758l-100.624-174.292c28.97-16.472 54.050-40.588 71.886-71.478 53.638-92.908 21.512-211.92-71.708-266.224l100.626-174.292c28.65 16.696 61.916 26.254 97.4 26.254 107.196 0 194.144-87.192 194.7-194.958h201.254c-0.086 33.074 8.272 66.57 25.966 97.218 53.636 92.906 172.776 124.594 266.414 71.012l100.626 174.29c-28.78 16.466-53.692 40.498-71.434 71.228zM512 240.668c-114.508 0-207.336 92.824-207.336 207.334 0 114.508 92.826 207.334 207.336 207.334 114.508 0 207.332-92.826 207.332-207.334-0.002-114.51-92.824-207.334-207.332-207.334z" />
<glyph unicode="&#xea3a;" glyph-name="arrow-thin-u" d="M877.254 557.254l-320 320c-24.992 24.994-65.514 24.994-90.508 0l-320-320c-24.994-24.994-24.994-65.516 0-90.51 24.994-24.996 65.516-24.996 90.51 0l210.744 210.746v-613.49c0-35.346 28.654-64 64-64s64 28.654 64 64v613.49l210.746-210.746c12.496-12.496 28.876-18.744 45.254-18.744s32.758 6.248 45.254 18.746c24.994 24.994 24.994 65.514 0 90.508z" />
<glyph unicode="&#xea3c;" glyph-name="arrow-thin-r" d="M621.254 82.746l320 320c24.994 24.992 24.994 65.516 0 90.51l-320 320c-24.994 24.992-65.516 24.992-90.51 0-24.994-24.994-24.994-65.516 0-90.51l210.746-210.746h-613.49c-35.346 0-64-28.654-64-64s28.654-64 64-64h613.49l-210.746-210.746c-12.496-12.496-18.744-28.876-18.744-45.254s6.248-32.758 18.744-45.254c24.994-24.994 65.516-24.994 90.51 0z" />
<glyph unicode="&#xea3e;" glyph-name="arrow-thin-d" d="M877.254 338.746l-320-320c-24.992-24.994-65.514-24.994-90.508 0l-320 320c-24.994 24.994-24.994 65.516 0 90.51 24.994 24.996 65.516 24.996 90.51 0l210.744-210.746v613.49c0 35.346 28.654 64 64 64s64-28.654 64-64v-613.49l210.746 210.746c12.496 12.496 28.876 18.744 45.254 18.744s32.758-6.248 45.254-18.746c24.994-24.994 24.994-65.514 0-90.508z" />
<glyph unicode="&#xea40;" glyph-name="arrow-thin-l" d="M402.746 82.746l-320 320c-24.994 24.992-24.994 65.516 0 90.51l320 320c24.994 24.992 65.516 24.992 90.51 0 24.994-24.994 24.994-65.516 0-90.51l-210.746-210.746h613.49c35.346 0 64-28.654 64-64s-28.654-64-64-64h-613.49l210.746-210.746c12.496-12.496 18.744-28.876 18.744-45.254s-6.248-32.758-18.744-45.254c-24.994-24.994-65.516-24.994-90.51 0z" />
<glyph unicode="&#xea41;" glyph-name="circle-up" d="M0 448c0-282.77 229.23-512 512-512s512 229.23 512 512-229.23 512-512 512-512-229.23-512-512zM928 448c0-229.75-186.25-416-416-416s-416 186.25-416 416 186.25 416 416 416 416-186.25 416-416zM706.744 290.744l90.512 90.512-285.256 285.254-285.254-285.256 90.508-90.508 194.746 194.744z" />
<glyph unicode="&#xea42;" glyph-name="circle-right" d="M512 960c-282.77 0-512-229.23-512-512s229.23-512 512-512 512 229.23 512 512-229.23 512-512 512zM512 32c-229.75 0-416 186.25-416 416s186.25 416 416 416 416-186.25 416-416-186.25-416-416-416zM354.744 253.256l90.512-90.512 285.254 285.256-285.256 285.254-90.508-90.508 194.744-194.746z" />
<glyph unicode="&#xea43;" glyph-name="circle-down" d="M1024 448c0 282.77-229.23 512-512 512s-512-229.23-512-512 229.23-512 512-512 512 229.23 512 512zM96 448c0 229.75 186.25 416 416 416s416-186.25 416-416-186.25-416-416-416-416 186.25-416 416zM317.256 605.256l-90.512-90.512 285.256-285.254 285.254 285.256-90.508 90.508-194.746-194.744z" />
<glyph unicode="&#xea44;" glyph-name="circle-left" d="M512-64c282.77 0 512 229.23 512 512s-229.23 512-512 512-512-229.23-512-512 229.23-512 512-512zM512 864c229.75 0 416-186.25 416-416s-186.25-416-416-416-416 186.25-416 416 186.25 416 416 416zM669.256 642.744l-90.512 90.512-285.254-285.256 285.256-285.254 90.508 90.508-194.744 194.746z" />
</font>
</defs>
</svg>
